Latest Movie :
Recent Movies

อยู่ไม่ได้ถ้าไม่มีคนคลิกข่าว

ดูหนังออนไลน์ [หนัง HQ] [มาสเตอร์] HITMAN โคตรเพชฌฆาต 47 [HD]

ดูหนังออนไลน์ [หนัง HQ] [มาสเตอร์] Staten Island เกรียนเลือดบ้า ท้าเมืองแสบ [DVD Master]

ดูหนังออนไลน์ [หนัง HQ] [มาสเตอร์] Season of the Witch มหาคำสาปสิ้นโลก [DVD Master]

[Mini-HD] I MISS U (2012) รักฉันอย่าคิดถึงฉัน [720p][Audio AC3 5.1:Tha][Sub:No][.MKV][3.02GB]


 I MISS U (2012) รักฉันอย่าคิดถึงฉัน | 3.02GB
เรื่องย่อ
หลังจากปล่อยทีเซอร์ของภาพยนตร์ I MISS YOU ออกมาได้สักพัก ก็เรียกเสียงฮือฮาในหมู่คอหนัง เพราะจากชื่อเรื่องที่น่าจะเป็นแนวโรแมนติก ทว่า I MISS YOU กลับเป็นหนังผีสยองขวัญซะอย่างนั้น และล่าสุด ทางค่ายหนัง M๓๙ (เอ็มเธอร์ตี้ไนน์) ก็ไม่รอช้า ส่งตัวอย่างฉบับเต็มของ ภาพยนตร์เรื่อง I MISS YOU มาให้แฟน ๆ ได้ชมกันแล้ว เรื่องราวจะเป็นอย่างไร อย่ารอช้ามาชมกันเลย
โดยทีเซอร์ภาพยนตร์ I Miss You เพิ่งปล่อยออกมาสด ๆ ร้อน ๆ เมื่อวานนี้ (26 มีนาคม) เป็นภาพยนตร์ของค่ายหนังเอ็ม ๓๙ ที่กำกับการแสดงโดย มลฑล อารยางกูร มีนักแสดงนำสุดหล่ออย่าง พี่ติ๊ก - เจษฎาภรณ์ ผลดี ,  จ๋า - ณัฐฐาวีรนุช ทองมี ,  สายป่าน - อภิญญา สกุลเจริญสุข ซึ่งภาพยนตร์เรื่องนี้มีเนื้อหาแนวโรแมนติกปนหลอน เป็นเรื่องราวเกี่ยวกับความรัก ความคิดถึง ความผูกพัน โดยมีคำโปรยสั้น ๆ ว่า "ถ้ารักฉัน อย่าคิดถึงฉัน"

General
Unique ID                                : 190660812951111037539580377110157775454 (0x8F6FEFD7EAA6429BA40D57B86264D25E)
Complete name                            : D:\moukung\Movie\M.H.IMY_fastest-Movie.blogspot.com.mkv
Format                                   : Matroska
Format version                           : Version 2
File size                                : 3.02 GiB
Duration                                 : 1h 57mn
Overall bit rate mode                    : Variable
Overall bit rate                         : 3 685 Kbps
Movie name                               : I MISS U 2012 720p
Encoded date                             : UTC 2012-09-13 04:25:07
Writing application                      : mkvmerge v4.6.0 ('Still Crazy After All These Years') built on Mar 10 2011 02:50:32
Writing library                          : libebml v1.2.0 + libmatroska v1.1.0

Video
ID                                       : 1
Format                                   : AVC
Format/Info                              : Advanced Video Codec
Format profile                           : High@L5.1
Format settings, CABAC                   : Yes
Format settings, ReFrames                : 3 frames
Codec ID                                 : V_MPEG4/ISO/AVC
Duration                                 : 1h 57mn
Bit rate mode                            : Variable
Bit rate                                 : 3 300 Kbps
Maximum bit rate                         : 25.0 Mbps
Width                                    : 1 280 pixels
Height                                   : 544 pixels
Display aspect ratio                     : 2.35:1
Frame rate mode                          : Constant
Frame rate                               : 25.000 fps
Color space                              : YUV
Chroma subsampling                       : 4:2:0
Bit depth                                : 8 bits
Scan type                                : Progressive
Bits/(Pixel*Frame)                       : 0.190
Stream size                              : 2.65 GiB (88%)
Writing library                          : x264 core 114 r1924 08d04a4
Encoding settings                        : cabac=1 / ref=3 / deblock=1:0:0 / analyse=0x3:0x133 / me=tesa / subme=10 / psy=1 / psy_rd=1.00:0.00 / mixed_ref=1 / me_range=16 / chroma_me=1 / trellis=2 / 8x8dct=1 / cqm=0 / deadzone=21,11 / fast_pskip=1 / chroma_qp_offset=-2 / threads=9 / sliced_threads=0 / nr=0 / decimate=1 / interlaced=0 / constrained_intra=0 / bframes=3 / b_pyramid=0 / b_adapt=1 / b_bias=0 / direct=1 / weightb=1 / open_gop=0 / weightp=2 / keyint=250 / keyint_min=25 / scenecut=40 / intra_refresh=0 / rc_lookahead=40 / rc=2pass / mbtree=1 / bitrate=3300 / ratetol=1.0 / qcomp=0.60 / qpmin=0 / qpmax=69 / qpstep=4 / cplxblur=20.0 / qblur=0.5 / vbv_maxrate=25000 / vbv_bufsize=25000 / nal_hrd=vbr / ip_ratio=1.40 / aq=1:1.00
Default                                  : Yes
Forced                                   : No

Audio
ID                                       : 2
Format                                   : AC-3
Format/Info                              : Audio Coding 3
Mode extension                           : CM (complete main)
Format settings, Endianness              : Big
Codec ID                                 : A_AC3
Duration                                 : 1h 57mn
Bit rate mode                            : Constant
Bit rate                                 : 384 Kbps
Channel(s)                               : 6 channels
Channel positions                        : Front: L C R, Side: L R, LFE
Sampling rate                            : 48.0 KHz
Bit depth                                : 16 bits
Compression mode                         : Lossy
Stream size                              : 323 MiB (10%)
Default                                  : Yes
Forced                                   : No



PART 200/ MB MKV
================================================
โหลดง่ายเร็วไม่ต้องพิมพ์ ตัวอักษร คลิ๊ก
================================================
PART 200/ MB MKV
PART/ 1.00 GB 
================================================
วิธีโหลด One2up ได้ทุกไฟล์ คลิ๊ก
================================================
================================================
 ** แบบแบ่ง Part 200MB โหลดแทนกันได้ **
 -- Winrar ใส่ Recovery Record 5% ทุกไฟล์ครับ คลิก --
================================================ 

 

ดูหนังออนไลน์ [หนัง HD] [มาสเตอร์] น์The Restless ศึกสามพิภพ รบ-รัก-พิทักษ์เธอ [DVD Master]

ดูหนังออนไลน์ The Restless ศึกสามพิภพ รบ-รัก-พิทักษ์เธอ [YouTube] [HQ] [Sound TH] [Sub ENG]

ดูหนังออนไลน์ [หนัง HD] [มาสเตอร์] Kaiji 2 ไคจิ กลโกงมรณะ 2 [DVD MAster]

ดูหนังออนไลน์ Kaiji 2 ไคจิ กลโกงมรณะ 2 [YouTube] [HQ] [Sound TH] [No Sub]

ดูหนังออนไลน์ [หนัง HD] [มาสเตอร์] Like Crazy 2011 รักแรก รักแท้ รักเดียว

ดูหนังออนไลน์ Like Crazy 2011 รักแรก รักแท้ รักเดียว [Youtube] [HQ] [Sound TH] [Sub ENG]

ดูหนังออนไลน์ [หนังการ์ตูน] [มาสเตอร์] Brother Bear มหัศจรรย์หมีผู้ยิ่งใหญ่

ดูหนังออนไลน์ [หนัง HD] [มาสเตอร์] dark shadows แวมไพร์มึนยุค

 
Support : Creating Website | Johny Template | Mas Template
Copyright © 2011. NanuanMovie มีทั้งโหลดทั้งดู - All Rights Reserved
Template Created by Creating Website Published by Mas Template
Proudly powered by Blogger